[next door Studios] next door buddies Vol. 10.avi | Alain Moussi | 22 MusikHarald Schmidt | En eaux troubles (2018) | Freizeit Express (0)

The Big Wedding 2013 BRRip 480p x264 AAC - VYTO [P2PDL]

  • Category Movies
  • Type h.264/x264
  • Language English
  • Total size 307.4 MB
  • Uploaded By VYTO
  • Downloads 160
  • Last checked 4 months ago
  • Date uploaded 5 years ago
  • Seeders 0
  • Leechers 0

The Big Wedding

Comedy

To the amusement of their adult children and friends, long divorced couple Don and Ellie Griffin are once again forced to play the happy couple for the sake of their adopted son's wedding after his ultra conservative biological mother unexpectedly decides to fly halfway across the world to attend. With all of the wedding guests looking on, the Griffins are hilariously forced to confront their past, present and future - and hopefully avoid killing each other in the process.

Infohash : CAD9E0DAEBE01769C3380660830F22D44CE6C4B4




The Big Wedding 2013 BRRip 480p x264 AAC - VYTO [P2PDL]


Quote:

Genre: Comedy
Plot: A long-divorced couple fakes being married as their family unites for a wedding.
Director: Justin Zackham
Stars: Robert De Niro, Katherine Heigl, Diane Keaton.
Rated: R for language, sexual content and brief nudity.




Info:
http://www.imdb.com/title/tt1931435/

Trailer:
http://www.youtube.com/watch?v=Yi0H0kllgBA


Quote:

Format : MPEG-4
File size : 301 MiB
Duration : 1h 29mn
Overall bit rate mode : Variable
Overall bit rate : 470 Kbps
Source : 720p.BluRay.DTS.x264-PublicHD

Video
Format : AVC
Bit rate : 426 Kbps
Width : 720 pixels
Height : 304 pixels
Display aspect ratio : 2.35:1
Frame rate mode : Constant
Frame rate : 23.976 fps
Stream size : 273 MiB (91%)
Writing library : x264 core 130 r2273

Audio
Format : AAC
Bit rate mode : Variable
Bit rate : 40.8 Kbps
Channel(s) : 2 channels
Channel positions : Front: L R
Sampling rate : 48.0 KHz
Stream size : 26.2 MiB (9%)
Language : English

Subtitle : Yes(English)




Screenshots:


















----------------------------------------------------------------------------------------------------


Quote:

Encoded using revolutionary 10bit encoding, which enables us to provide you more crispier
and sharper images at small sizes, just make sure you follow our instructions without a fault.
Recommend to you to use latest version of VLC player. Install K-Lite Codec Pack or shark007 codecs
in case of any kind of problem in playback (For non-VLC Media Player users). Alternatively, install
Core AVC codecs, the fastest decoder that there is coupled with Community Center Codec Pack and play
on Windows Media Player Classic. Check sample to be sure.
Enjoy!

Encoder Notes: Looking For Early Access To Anything You Can Provide DVDScr, R5, DVDR, BluRay, Direct
Audio, Music Releases and Seedboxes. We require dedicated servers, so as to do more and fast releases of movies.
If You Got anything to offer contact us at "[email protected]".







Files:

Connect With Us
  • Connect With Us.txt (0.3 KB)
  • Facebook.txt (0.2 KB)
  • Twitter.txt (0.1 KB)
  • Email.txt (0.0 KB)
The Big Wedding 2013 WEBRip 480p x264 AAC - VYTO
  • The Big Wedding 2013 WEBRip 480p x264 AAC - VYTO.mp4 (300.9 MB)
  • The Big Wedding 2013 WEBRip 480p x264 AAC - VYTO.srt (222.8 KB)
  • The Big Wedding 2013 WEBRip 480p x264 AAC - VYTO.nfo (4.7 KB)
  • Sample.mp4 (6.4 MB)
  • Torrent downloaded from P2PDL.com.txt (0.0 KB)

There are currently no comments. Feel free to leave one :)

Code:

  • http://fr33dom.h33t.com:3310/announce
  • udp://fr33dom.h33t.com:3310/announce
  • udp://9.rarbg.com:2710/announce
  • udp://9.rarbg.me:2710/announce
  • udp://tracker.publicbt.com:80/announce
  • udp://10.rarbg.com/announce
  • udp://10.rarbg.me/announce
  • http://newhorizons.twentyforty.me:2710/announce
  • http://www.h33t.com:3310/announce
  • udp://tracker.istole.it:80/announce
  • udp://12.rarbg.me:80/announce
  • http://p2pdl.com:2710/announce
  • udp://ipv4.tracker.harry.lu:80/announce
  • udp://open.demonii.com:1337/announce
  • http://94.228.192.98/announce