Regarder Marvel's Luke Cage - Saison 2 en Streaming | Frantic | 1988 | 720p | Dual | Télécharger Part 15Bluray 8.2 V for Vendetta (2005) | rkelly76 | Brooklyn DA

R.I.P.D.2013.CAM.XViD-FANTA

  • Category Movies
  • Type Divx/Xvid
  • Language English
  • Total size 1.8 GB
  • Uploaded By Silmarillion
  • Downloads 364
  • Last checked 20 hours ago
  • Date uploaded 4 years ago
  • Seeders 0
  • Leechers 0

R.I.P.D.

ActionComedyCrimeFantasy

A recently slain cop joins a team of undead police officers working for the Rest in Peace Department and tries to find the man who murdered him. Based on the comic by Peter M. Lenkov.

Infohash : E7421029BE8B09906F42E9714F502AB980CF18C3




http://www.imdb.com/title/tt0790736/


A recently slain cop joins a team of undead police officers working for the Rest in Peace Department and tries to find the man who murdered him.



Director:
Robert Schwentke

Writers:
Phil Hay (screenplay), Matt Manfredi (screenplay)

Stars:
Jeff Bridges, Ryan Reynolds, Kevin Bacon

Genres:
Action | Comedy | Crime | Fantasy

Country:
USA



Format : AVI
Format/Info : Audio Video Interleave
Format profile : OpenDML
Format settings : rec
File size : 1.82 GiB
Duration : 1h 26mn
Overall bit rate : 3 023 Kbps
Writing application : AVI-Mux GUI 1.17.8.3, Feb 16 201019:42:50

Video
ID : 0
Format : MPEG-4 Visual
Format profile : Advanced [email protected]
Format settings, BVOP : 1
Format settings, QPel : No
Format settings, GMC : No warppoints
Format settings, Matrix : Default (H.263)
Muxing mode : Packed bitstream
Codec ID : XVID
Codec ID/Hint : XviD
Duration : 1h 26mn
Bit rate : 2 824 Kbps
Width : 660 pixels
Height : 330 pixels
Display aspect ratio : 2.000
Frame rate : 29.970 fps
Color space : YUV
Chroma subsampling : 4:2:0
Bit depth : 8 bits
Scan type : Progressive
Compression mode : Lossy
Bits/(Pixel*Frame) : 0.433
Stream size : 1.70 GiB (93%)
Writing library : XviD 64

Audio
ID : 1
Format : AC-3
Format/Info : Audio Coding 3
Mode extension : CM (complete main)
Format settings, Endianness : Big
Codec ID : 2000
Duration : 1h 26mn
Bit rate mode : Constant
Bit rate : 192 Kbps
Channel(s) : 2 channels
Channel positions : Front: L R
Sampling rate : 48.0 KHz
Bit depth : 16 bits
Compression mode : Lossy
Stream size : 118 MiB (6%)
Alignment : Aligned on interleaves
Interleave, duration : 64 ms (1.92 video frames)
Interleave, preload duration : 192 ms
Title : CrEwSaDe







Files:

  • nf0.nfo (5.7 KB)
  • R.I.P.D.2013.CAM.XViD-FANTA-SAMPLE.avi (30.7 MB)
  • R.I.P.D.2013.CAM.XViD-FANTA.avi (1.8 GB)
  • Torrent Downloaded From ExtraTorrent.com.txt (0.3 KB)
  • vlcsnap-2013-08-01-20h33m08s154.png (533.2 KB)
  • vlcsnap-2013-08-01-20h33m20s36.png (195.0 KB)

There are currently no comments. Feel free to leave one :)

Code:

  • http://fr33dom.h33t.com:3310/announce
  • udp://fr33dom.h33t.com:3310/announce
  • udp://9.rarbg.com:2710/announce
  • udp://9.rarbg.me:2710/announce
  • udp://tracker.publicbt.com:80/announce
  • udp://10.rarbg.com/announce
  • udp://10.rarbg.me/announce
  • udp://coppersurfer.tk:6969/announce
  • http://www.h33t.com:3310/announce
  • udp://tracker.istole.it:80/announce
  • udp://12.rarbg.me:80/announce
  • udp://tracker.openbittorrent.com:80/announce
  • udp://ipv4.tracker.harry.lu:80/announce
  • http://121.14.98.151:9090/announce
  • http://94.228.192.98/announce