Injustice 2 Legendary Edition Juego PC EspaƱol (2018) Mega-Torrent | En Busca de Nosotros | Asobi ni Iku yo!DEMARCO FLAMENCO & MAKI | Altes Geld (1) | The Glades (78)

The.Wolverine.2013.CAM.NEW.SOURCE.READNFO.XViD-FANTA

  • Category Movies
  • Type Divx/Xvid
  • Language English
  • Total size 1.4 GB
  • Uploaded By Silmarillion
  • Downloads 1960
  • Last checked 3 months ago
  • Date uploaded 5 years ago
  • Seeders 0
  • Leechers 0

The Wolverine

ActionAdventureFantasyScience Fiction

Wolverine faces his ultimate nemesis - and tests of his physical, emotional, and mortal limits - in a life-changing voyage to modern-day Japan.

Infohash : 8314D74139F69784BE991BFB38C134FE171C5A6D





http://www.imdb.com/title/tt1430132/



Summoned to Japan by an old acquaintance, Wolverine becomes embroiled in a conflict that forces him to confront his own demons.



Director:
James Mangold

Writers:
Mark Bomback (screenplay), Scott Frank (screenplay)

Stars:
Hugh Jackman, Tao Okamoto, Rila Fukushima

Genres:
Action | Adventure | Fantasy | Sci-Fi

Country:
USA







Format : AVI
Format/Info : Audio Video Interleave
Format profile : OpenDML
Format settings : rec
File size : 1.34 GiB
Duration : 1h 49mn
Overall bit rate : 1 750 Kbps
Writing application : AVI-Mux GUI 1.17.8.3, Feb 16 201019:42:50

Video
ID : 0
Format : MPEG-4 Visual
Format profile : Advanced [email protected]
Format settings, BVOP : 1
Format settings, QPel : No
Format settings, GMC : No warppoints
Format settings, Matrix : Default (H.263)
Muxing mode : Packed bitstream
Codec ID : XVID
Codec ID/Hint : XviD
Duration : 1h 49mn
Bit rate : 1 552 Kbps
Width : 720 pixels
Height : 288 pixels
Display aspect ratio : 2.500
Frame rate : 25.000 fps
Color space : YUV
Chroma subsampling : 4:2:0
Bit depth : 8 bits
Scan type : Progressive
Compression mode : Lossy
Bits/(Pixel*Frame) : 0.299
Stream size : 1.19 GiB (89%)
Writing library : XviD 64

Audio
ID : 1
Format : AC-3
Format/Info : Audio Coding 3
Codec ID : 2000
Duration : 1h 49mn
Bit rate mode : Constant
Bit rate : 192 Kbps
Channel(s) : 2 channels
Sampling rate : 48.0 KHz
Compression mode : Lossy
Stream size : 151 MiB (11%)
Alignment : Aligned on interleaves
Title : the wolverine 2013 better audio-moviesounds123-New








Files:

  • nf0.nfo (5.0 KB)
  • The.Wolverine.2013.CAM.NEW.SOURCE.READNFO.XViD-FANTA-SAMPLE.avi (31.8 MB)
  • The.Wolverine.2013.CAM.NEW.SOURCE.READNFO.XViD-FANTA.avi (1.3 GB)
  • Torrent Downloaded From ExtraTorrent.com.txt (0.3 KB)
  • vlcsnap-2013-08-01-16h31m30s83.png (65.0 KB)
  • vlcsnap-2013-08-01-16h31m52s54.png (228.8 KB)

Comments

Code:

  • http://fr33dom.h33t.com:3310/announce
  • udp://fr33dom.h33t.com:3310/announce
  • udp://9.rarbg.com:2710/announce
  • udp://9.rarbg.me:2710/announce
  • udp://tracker.publicbt.com:80/announce
  • udp://10.rarbg.com/announce
  • udp://10.rarbg.me/announce
  • udp://coppersurfer.tk:6969/announce
  • http://www.h33t.com:3310/announce
  • udp://tracker.istole.it:80/announce
  • udp://12.rarbg.me:80/announce
  • udp://tracker.openbittorrent.com:80/announce
  • udp://ipv4.tracker.harry.lu:80/announce
  • http://121.14.98.151:9090/announce
  • http://94.228.192.98/announce