Robert LaSardo | Jordanna Allen | La Ballade de NarayamaPoyraz Karayel | Watch now! | Семейный

Pain & Gain 2013 READNFO TS XViD UNiQUE

  • Category Movies
  • Type Divx/Xvid
  • Language English
  • Total size 1.4 GB
  • Uploaded By Silmarillion
  • Downloads 894
  • Last checked 3 months ago
  • Date uploaded 5 years ago
  • Seeders 0
  • Leechers 0

Pain & Gain

ActionCrimeThriller

Based on the true story of Daniel Lugo (Mark Wahlberg) a Miami bodybuilder who wants to live the American dream. He would like to have the money that other people have. So he enlists the help of fellow bodybuilder Adrian Doorbal (Anthony Mackie) and ex-convict, Christian bodybuilder Paul Doyle (Dwayne Johnson). Their kidnapping and extortion scheme goes terribly wrong since they have muscles for brains and they're left to haphazardly try to hold onto the elusive American dream.

Infohash : 42C2C877231D48E9BD1BD779A0C0A4F7765E5EDE




http://www.imdb.com/title/tt1980209/


A trio of bodybuilders in Florida get caught up in an extortion ring and a kidnapping scheme that goes terribly wrong.



Director:
Michael Bay

Writers:
Christopher Markus (screenplay), Stephen McFeely (screenplay)

Stars:
Mark Wahlberg, Dwayne Johnson, Anthony Mackie

Genres:
Action | Comedy | Crime | Drama | Thriller

Country:
USA

Language:
English



Format : AVI
Format/Info : Audio Video Interleave
File size : 1.40 GiB
Duration : 2h 1mn
Overall bit rate : 1 647 Kbps
Writing application : VirtualDubMod 1.5.10.2 (build 2540/release)
Writing library : VirtualDubMod build 2540/release

Video
ID : 0
Format : MPEG-4 Visual
Format profile : Advanced [email protected]
Format settings, BVOP : 2
Format settings, QPel : No
Format settings, GMC : No warppoints
Format settings, Matrix : Default (H.263)
Muxing mode : Packed bitstream
Codec ID : XVID
Codec ID/Hint : XviD
Duration : 2h 1mn
Bit rate : 1 511 Kbps
Width : 720 pixels
Height : 304 pixels
Display aspect ratio : 2.35:1
Frame rate : 24.000 fps
Color space : YUV
Chroma subsampling : 4:2:0
Bit depth : 8 bits
Scan type : Progressive
Compression mode : Lossy
Bits/(Pixel*Frame) : 0.288
Stream size : 1.28 GiB (92%)
Writing library : XviD 64

Audio
ID : 1
Format : MPEG Audio
Format version : Version 1
Format profile : Layer 3
Mode : Joint stereo
Codec ID : 55
Codec ID/Hint : MP3
Duration : 2h 1mn
Bit rate mode : Constant
Bit rate : 128 Kbps
Channel(s) : 2 channels
Sampling rate : 48.0 KHz
Compression mode : Lossy
Stream size : 111 MiB (8%)
Alignment : Aligned on interleaves
Interleave, duration : 42 ms (1.01 video frame)
Interleave, preload duration : 504 ms

Source Used Pain And Gain ReadInfo 2013 iT MD TELESYNC XviD-RAVERS / MiLLENiUM - Thanks






Files:

  • Pain.avi (1.4 GB)
  • Torrent Downloaded From ExtraTorrent.com.txt (0.3 KB)
  • sample.avi (7.5 MB)

There are currently no comments. Feel free to leave one :)

Code:

  • http://fr33dom.h33t.com:3310/announce
  • udp://fr33dom.h33t.com:3310/announce
  • udp://9.rarbg.com:2710/announce
  • udp://9.rarbg.me:2710/announce
  • udp://tracker.publicbt.com:80/announce
  • udp://10.rarbg.com/announce
  • udp://10.rarbg.me/announce
  • udp://coppersurfer.tk:6969/announce
  • http://www.h33t.com:3310/announce
  • udp://tracker.istole.it:80/announce
  • udp://12.rarbg.me:80/announce
  • udp://tracker.openbittorrent.com:80/announce
  • udp://ipv4.tracker.harry.lu:80/announce
  • http://121.14.98.151:9090/announce
  • http://94.228.192.98/announce