Télécharger Part 2 | Sapai Jao Sua | Rikudou 77film de Jean Renoir | June 2017 (112) | Bloons td5

Supernatural S07e08 - E' Ora Di Sposarsi [SATrip - DivX - Italia...

  • Category TV
  • Type Divx/Xvid
  • Language Italian
  • Total size 400.3 MB
  • Uploaded By robbyrs
  • Downloads 133
  • Last checked 1 hour ago
  • Date uploaded 4 years ago
  • Seeders 0
  • Leechers 1
80%
November 12, 2011, 3:00 am

Supernatural

While on a hunt, Sam runs into someone from his past and a confrontation ensues. Meanwhile, Dean reluctantly teams up with a quirky, laid-back hunter named Garth, when he finds himself in a situation that he just cannot explain.

Infohash : 95BE4B3D549B5F4534568C465F2459169D7620AF

Supernatural S07e08 - E' Ora Di Sposarsi [SATrip - DivX - Italian Mp3] MIRCrew [TNT Village]







STAGIONE 7 ITA

Grazie al ripper

Episodi presenti:



Supernatural S07e08 - E' Ora Di Sposarsi



Titolo originale Supernatural
Paese Stati Uniti d'America
Anno 2005 – in produzione
Formato serie TV
Genere horror, thriller, fantasy
Stagioni 8
Episodi 149+++++
Durata 45 minuti (episodio)
Lingua originale inglese
Caratteristiche tecniche
Aspect ratio 16:9
Ideatore Eric Kripke
Produttore Kripke Enterprises, Wonderland Sound and Vision e Warner Bros. Television



Jared Padalecki: Sam Winchester
Jensen Ackles: Dean Winchester
Katie Cassidy: Ruby
Lauren Cohan: Bela Talbot
Misha Collins: Castiel

Doppiatori e personaggi

David Chevalier: Sam Winchester
Stefano Crescentini: Dean Winchester
Domitilla D'Amico: Ruby
Myriam Catania: Bela Talbot
Vittorio Guerrieri: Castiel






DATI FILE:

General
Complete name : Supernatural.7x08
Format : AVI
Format/Info : Audio Video Interleave
File size : 400 MiB
Duration : 40mn 15s
Overall bit rate : 1 391 Kbps
Writing application : VirtualDubMod 1.5.4.1 (build 2066/release)
Writing library : VirtualDubMod build 2066/release

Video
ID : 0
Format : MPEG-4 Visual
Format settings, BVOP : Yes
Format settings, QPel : No
Format settings, GMC : No warppoints
Format settings, Matrix : Default (H.263)
Muxing mode : Packed bitstream
Codec ID : DX50
Codec ID/Hint : DivX 5
Duration : 40mn 15s
Bit rate : 1 253 Kbps
Width : 720 pixels
Height : 400 pixels
Display aspect ratio : 16:9
Frame rate : 25.000 fps
Color space : YUV
Chroma subsampling : 4:2:0
Bit depth : 8 bits
Scan type : Progressive
Bits/(Pixel*Frame) : 0.174
Stream size : 361 MiB (90%)
Writing library : DivX 5.2.1 (DrDivX 106) (UTC 2004-09-08)

Audio
ID : 1
Format : MPEG Audio
Format version : Version 1
Format profile : Layer 3
Mode : Joint stereo
Mode extension : MS Stereo
Codec ID : 55
Codec ID/Hint : MP3
Duration : 40mn 14s
Bit rate mode : Constant
Bit rate : 128 Kbps
Channel(s) : 2 channels
Sampling rate : 48.0 KHz
Stream size : 36.8 MiB (9%)
Alignment : Split accross interleaves
Interleave, duration : 40 ms (1.00 video frame)
Interleave, preload duration : 500 ms








Files:

  • Supernatural.7x08.E' ora di sposarsi.FFT.sat-HQ.ITA.avi (400.3 MB)

There are currently no comments. Feel free to leave one :)

Code:

  • http://tracker.tntvillage.scambioetico.org:2710/announce
  • udp://tracker.tntvillage.scambioetico.org:2710/announce
  • udp://fr33dom.h33t.com:3310/announce
  • http://tracker2.torrentbox.com:2710/announce
  • http://tracker.torrentbox.com:2710/announce
  • http://tracker1.torrentbox.com:2710/announce
  • http://tracker.podtropolis.com:2711/announce
  • udp://tracker.1337x.org:80/announce
  • udp://tracker.openbittorrent.com:80/announce
  • http://tracker.openbittorrent.com:80/announce
  • udp://tracker.istole.it:80/announce
  • http://9.rarbg.com:2710/announce
  • udp://tracker.btscene.eu:80/announce