Sengoku Night Blood Sub Indo Batch Eps 1-12 Lengkap | Attack on Titan - Season 3 - Ep. 09 720p PTBR | Prison School (3)Kennouch | Pyewacket | Falsche Hilfeseiten auf Facebook: Diesem Support solltet ihr nicht trauen So gelangt ihr zum echten Facebook-Support Habt ihr Probleme mit dem Facebook-Konto, sto├čt ihr schnell auf einen Account namens Hilfezentrum. Diese Facebook-Seite stammt jedoch nicht vom Sozialen Netzwerk selbst. Warum ihr diese Seite ...

The Lifeguard 2013 WEBRip 480p x264 AAC - VYTO [P2PDL]

  • Category Movies
  • Type h.264/x264
  • Language English
  • Total size 312.1 MB
  • Uploaded By VYTO
  • Downloads 249
  • Last checked 3 months ago
  • Date uploaded 5 years ago
  • Seeders 1
  • Leechers 0

The Lifeguard

ComedyDramaRomance

A former valedictorian quits her reporter job in New York and returns to the place she last felt happy: her childhood home in Connecticut. She gets work as a lifeguard and starts a dangerous relationship with a troubled teenager.

Infohash : A2EFF9FC3CAD049287887C202373845463F6086F




The Lifeguard 2013 WEBRip 480p x264 AAC - VYTO


Quote:

Genre: Comedy | Drama
Plot: A former valedictorian quits her reporter job in New York and returns to the place
she last felt happy: her childhood home in Connecticut. She gets work as a lifeguard and
starts a dangerous relationship with a troubled teenager.
Director: Liz W. Garcia
Stars: Kristen Bell, Mamie Gummer, Martin Starr
Rated: R for strong sexuality, brief graphic nudity, drug use, language and a disturbing
image - some involving teens.




Info:
http://www.imdb.com/title/tt2265534/

Trailer:
http://www.youtube.com/watch?v=x92mfhWERew


Quote:

Format : MPEG-4
File size : 309 MiB
Duration : 1h 37mn
Overall bit rate : 442 Kbps
Source : 1080p.WEB-DL.H264-PublicHD

Video
Format : AVC
Bit rate : 399 Kbps
Width : 720 pixels
Height : 400 pixels
Display aspect ratio : 16:9
Frame rate mode : Constant
Frame rate : 23.976 fps
Stream size : 279 MiB (90%)
Writing library : x264 core 130 r2273
Audio
Format : AAC
Bit rate mode : Variable
Bit rate : 39.0 Kbps
Channel(s) : 2 channels
Channel positions : Front: L R
Sampling rate : 48.0 KHz
Stream size : 27.3 MiB (9%)
Language : English

Subtitle : Yes(English)




Screenshots:














----------------------------------------------------------------------------------------------------


Quote:

Encoded using revolutionary 10bit encoding, which enables us to provide you more crispier
and sharper images at small sizes, just make sure you follow our instructions without a fault.
Recommend to you to use latest version of VLC player. Install K-Lite Codec Pack or shark007 codecs
in case of any kind of problem in playback (For non-VLC Media Player users). Alternatively, install
Core AVC codecs, the fastest decoder that there is coupled with Community Center Codec Pack and play
on Windows Media Player Classic. Check sample to be sure.
Enjoy!

Encoder Notes: Looking For Early Access To Anything You Can Provide DVDScr, R5, DVDR, BluRay, Direct
Audio, Music Releases and Seedboxes. We require dedicated servers, so as to do more and fast releases of movies.
If You Got anything to offer contact us at "[email protected]".







Files:

Connect With Us
  • Connect With Us.txt (0.3 KB)
  • Facebook.txt (0.2 KB)
  • Twitter.txt (0.1 KB)
  • Email.txt (0.0 KB)
The Lifeguard 2013 WEBRip 480p x264 AAC - VYTO
  • The Lifeguard 2013 WEBRip 480p x264 AAC - VYTO.mp4 (308.9 MB)
  • The Lifeguard 2013 WEBRip 480p x264 AAC - VYTO.srt (92.1 KB)
  • The Lifeguard 2013 WEBRip 480p x264 AAC - VYTO.nfo (4.9 KB)
  • Sample.mp4 (3.1 MB)
  • Torrent downloaded from P2PDL.com.txt (0.0 KB)

There are currently no comments. Feel free to leave one :)

Code:

  • http://fr33dom.h33t.com:3310/announce
  • udp://fr33dom.h33t.com:3310/announce
  • udp://9.rarbg.com:2710/announce
  • udp://9.rarbg.me:2710/announce
  • udp://tracker.publicbt.com:80/announce
  • udp://10.rarbg.com/announce
  • udp://10.rarbg.me/announce
  • http://newhorizons.twentyforty.me:2710/announce
  • http://www.h33t.com:3310/announce
  • udp://tracker.istole.it:80/announce
  • udp://12.rarbg.me:80/announce
  • http://p2pdl.com:2710/announce
  • udp://ipv4.tracker.harry.lu:80/announce
  • udp://open.demonii.com:1337/announce
  • http://94.228.192.98/announce