Jeux du moment | Nitro Pro Enterprise 12.0.0.113 Portable | Memorias de un Zombie adolesce.. 4KULTRAHDTrahison d'état historique 2017 Dans l'Irak de l'après-guerre où des agents du gouvernement avides de pouvoir convoitent les réserves de carburant, le coordinateur d'une... | Inferno no Faroeste 2 | Batman Unlimited: Monster Mayhem (Movie)

Justin Timberlake - Take Back the Night [2013]

  • Category Music
  • Type Video
  • Language English
  • Total size 60.0 MB
  • Uploaded By lebeque
  • Downloads 485
  • Last checked 3 months ago
  • Date uploaded 5 years ago
  • Seeders 0
  • Leechers 0

Infohash : 680C873A0B946B1D07003165479F0162083F2632



[General]
Format: MPEG-4
Format profile: Base Media
Codec ID: isom
File size: 60.0 MiB
Duration: 5mn 57s
Overall bit rate mode: Variable
Overall bit rate: 1 406 Kbps
Encoded date: UTC 2013-07-31 07:30:22
Tagged date: UTC 2013-07-31 07:30:22
Writing application: Lavf54.63.104

[Video]
ID: 1
Format: AVC
Format/Info: Advanced Video Codec
Format profile: [email protected]
Format settings, CABAC: Yes
Format settings, ReFrames: 1 frame
Codec ID: avc1
Codec ID/Info: Advanced Video Coding
Duration: 5mn 57s
Bit rate: 1 266 Kbps
Width: 852 pixels
Height: 480 pixels
Display aspect ratio: 16:9
Frame rate mode: Constant
Frame rate: 23.976 fps
Color space: YUV
Chroma subsampling: 4:2:0
Bit depth: 8 bits
Scan type: Progressive
Bits/(Pixel*Frame): 0.129
Stream size: 53.3 MiB (89%)
Writing library: x264 core 129
Encoded date: UTC 2013-07-31 07:30:22
Tagged date: UTC 2013-07-31 07:30:22

[Audio]
ID: 2
Format: AAC
Format/Info: Advanced Audio Codec
Format profile: LC
Codec ID: 40
Duration: 5mn 57s
Duration_FirstFrame: 70ms
Bit rate mode: Variable
Bit rate: 151 Kbps
Maximum bit rate: 176 Kbps
Channel(s): 2 channels
Channel positions: Front: L R
Sampling rate: 44.1 KHz
Compression mode: Lossy
Stream size: 6.43 MiB (11%)
Encoded date: UTC 2013-07-31 07:30:22
Tagged date: UTC 2013-07-31 07:30:22

Files:

  • Justin Timberlake - Take Back The N.mp4 (60.0 MB)
  • Justin Timberlake - Take Back The N.srt (5.8 KB)

There are currently no comments. Feel free to leave one :)

Code:

  • udp://tracker.openbittorrent.com:80/announce
  • udp://tracker.publicbt.com:80/announce
  • udp://tracker.istole.it:6969/announce
  • udp://tracker.ccc.de:80/announce
  • udp://open.demonii.com:1337/announce
  • http://fr33dom.h33t.com:3310/announce
  • http://p2pdl.com:2710/announce
  • http://tracker.publicbt.com/announce
  • http://torrent-download.to:5869/announce
  • http://tracker.hexagon.cc:2710/announce