Ricardo Darín | Tanken - mehr als Super | 6.7K 4 Middleearth Shadow of War – XboxOne “Following the amazing reception to Middle-earth: Shadow of Mordor, we massively expanded every dimension of the game, including the world, the story,...Poldark HDTV 720p AC3 5.1 |  90 comment(s) | 20x33 season x episode Big Brother

Vishwaroopam 2 (2018) Hindi (Cleaned) HDRip x264 AAC by Full4movi...

  • Category Movies
  • Type h.264/x264
  • Language Hindi
  • Total size 671.2 MB
  • Uploaded By shmasti
  • Downloads 1104
  • Last checked 55 minutes ago
  • Date uploaded 9 hours ago
  • Seeders 76
  • Leechers 77

Infohash : 331DE1B1AAC9F0617C80014B11FDBAD44194D256



General
Complete name : Vishwaroopam 2 (2018) Hindi (Cleaned) HDRip x264 AAC by Full4movies.mkv
Format : Matroska
Format version : Version 4 / Version 2
File size : 671 MiB
Duration : 2 h 24 min
Overall bit rate : 651 kb/s
Encoded date : UTC 2018-09-13 18:05:29
Writing application : mkvmerge v8.1.0 ('Psychedelic Postcard') 32bit
Writing library : libebml v1.3.1 + libmatroska v1.4.2

Video
ID : 1
Format : AVC
Format/Info : Advanced Video Codec
Format profile : [email protected]
Format settings, CABAC : Yes
Format settings, RefFrames : 4 frames
Codec ID : V_MPEG4/ISO/AVC
Duration : 2 h 24 min
Bit rate : 588 kb/s
Width : 640 pixels
Height : 272 pixels
Display aspect ratio : 2.35:1
Frame rate mode : Variable
Frame rate : 29.970 (30000/1001) FPS
Color space : YUV
Chroma subsampling : 4:2:0
Bit depth : 8 bits
Scan type : Progressive
Bits/(Pixel*Frame) : 0.113
Stream size : 601 MiB (90%)
Writing library : x264 core 148 r2744 b97ae06
Language : English
Default : Yes
Forced : No

Audio
ID : 2
Format : AAC
Format/Info : Advanced Audio Codec
Format profile : LC
Codec ID : A_AAC
Duration : 2 h 24 min
Bit rate : 64.4 kb/s
Channel(s) : 2 channels
Channel positions : Front: L R
Sampling rate : 48.0 kHz
Frame rate : 46.875 FPS (1024 SPF)
Compression mode : Lossy
Delay relative to video : -21 ms
Stream size : 66.4 MiB (10%)
Language : English
Default : Yes
Forced : No

Screen Shoots

Files:

  • Vishwaroopam 2 (2018) Hindi (Cleaned) HDRip x264 AAC by Full4movies.mkv (671.2 MB)

There are currently no comments. Feel free to leave one :)

Code:

  • udp://tracker.coppersurfer.tk:6969/announce
  • udp://tracker.opentrackr.org:1337/announce
  • udp://9.rarbg.me:2710/announce
  • udp://tracker.torrent.eu.org:451/announce
  • udp://open.stealth.si:80/announce
  • udp://public.popcorn-tracker.org:6969/announce
  • udp://p4p.arenabg.ch:1337/announce
  • udp://tracker.zer0day.to:1337/announce
  • udp://tracker.pirateparty.gr:6969/announce
  • udp://tracker.leechers-paradise.org:6969/announce
  • udp://tracker.tiny-vps.com:6969/announce
  • udp://bt.firebit.co.uk:6969/announce
  • udp://inferno.demonoid.pw:3397/announce
  • udp://shadowshq.yi.org:6969/announce
  • udp://9.rarbg.to:2780/announce