Biography | Watch movie | BiograficoНарушения | Последний охотник на ведьм / The Last Witch Hunter (2015) WEB-DLRip | iTunes | Streaming

Fuel - 2018 - Sunburn

  • Category Music
  • Type MP3
  • Language English
  • Total size 93.7 MB
  • Uploaded By KATJohnRambo
  • Downloads 62
  • Last checked 22 minutes ago
  • Date uploaded 10 hours ago
  • Seeders 10
  • Leechers 2

Infohash : 05CED35308EE117DF45B480E0D64302B2A9EDA82





--------------------------------------------------------------------------------
Analyzed: Fuel / Sunburn
--------------------------------------------------------------------------------

DR         Peak         RMS     Duration Track
--------------------------------------------------------------------------------
DR11      -7.85 dB   -20.49 dB      3:53 01-Untitled
DR11      -7.25 dB   -20.92 dB      3:46 02-Bittersweet
DR10      -8.58 dB   -22.44 dB      3:29 03-Shimmer
DR11      -8.00 dB   -21.67 dB      3:52 04-Jesus Or A Gun
DR11      -9.23 dB   -22.59 dB      4:16 05-Sunburn
DR10      -8.81 dB   -20.93 dB      3:14 06-New Thing
DR11      -8.21 dB   -21.28 dB      3:34 07-It's Come To This
DR11      -8.87 dB   -21.25 dB      3:41 08-Song For You
DR11      -8.53 dB   -21.33 dB      3:31 09-Mary Pretends
DR11      -8.55 dB   -21.15 dB      3:43 10-Ozone
DR10      -9.17 dB   -21.82 dB      3:56 11-Hideaway
--------------------------------------------------------------------------------

Number of tracks:  11
Official DR value: DR11

Samplerate:        48000 Hz
Channels:          2
Bitrate:           320 kbps
Codec:             MP3
================================================================================

Files:

Fuel - 2018 - Sunburn
  • 05. Sunburn.mp3 (9.8 MB)
  • 02. Bittersweet.mp3 (8.6 MB)
  • 03. Shimmer.mp3 (8.0 MB)
  • 04. Jesus Or A Gun.mp3 (8.9 MB)
  • 01. Untitled.mp3 (8.9 MB)
  • 06. New Thing.mp3 (7.4 MB)
  • 07. It's Come To This.mp3 (8.2 MB)
  • 08. Song For You.mp3 (8.4 MB)
  • 09. Mary Pretends.mp3 (8.1 MB)
  • 10. Ozone.mp3 (8.5 MB)
  • 11. Hideaway.mp3 (9.0 MB)
  • foo_dr.txt (1.3 KB)

There are currently no comments. Feel free to leave one :)

Code:

  • udp://tracker.coppersurfer.tk:6969