Chris Farah | This Close 1ª Temporada Episódio 01 Online – LEGENDADO | St. TropezThe Tesla Files S01E05 WEB h264-CookieMonster[ettv] 37 minutes | The Cosmopolitans | The Bronze Teeth 4

Disobedience 2017 1080p BluRay x264 DTS [MW]

  • Category Movies
  • Type HD
  • Language English
  • Total size 3.0 GB
  • Uploaded By moviezworldz
  • Downloads 14
  • Last checked 2 minutes ago
  • Date uploaded 22 hours ago
  • Seeders 18
  • Leechers 11

Disobedience

DramaRomance

A woman learns about the death of her father. She returns to her Orthodox Jewish home and falls in love with her best childhood friend who is now married to her cousin.

Infohash : 584600D34E309DE49771A895E05870BA453BD45B





General
Format : Matroska
Format version : Version 4 / Version 2
File size : 2.96 GiB
Duration : 1 h 54 min
Overall bit rate : 3 692 kb/s

Video
ID : 1
Format : AVC
Format/Info : Advanced Video Codec
Format profile : [email protected]
Format settings : CABAC / 4 Ref Frames
Format settings, CABAC : Yes
Format settings, RefFrames : 4 frames
Codec ID : V_MPEG4/ISO/AVC
Duration : 1 h 54 min
Bit rate : 2 200 kb/s
Width : 1 920 pixels
Height : 804 pixels
Display aspect ratio : 2.40:1
Frame rate mode : Constant
Frame rate : 23.976 (24000/1001) FPS
Color space : YUV
Chroma subsampling : 4:2:0
Bit depth : 8 bits
Scan type : Progressive
Bits/(Pixel*Frame) : 0.059
Stream size : 1.74 GiB (59%)
Writing library : x264 core 155 r2901 7d0ff22
Default : Yes
Forced : No

Audio
ID : 2
Format : DTS
Format/Info : Digital Theater Systems
Codec ID : A_DTS
Duration : 1 h 54 min
Bit rate mode : Constant
Bit rate : 1 509 kb/s
Channel(s) : 6 channels
Channel positions : Front: L C R, Side: L R, LFE
Sampling rate : 48.0 kHz
Frame rate : 93.750 FPS (512 SPF)
Bit depth : 24 bits
Compression mode : Lossy
Stream size : 1.21 GiB (41%)
Language : English
Default : Yes
Forced : No

Text
ID : 3
Format : VobSub
Muxing mode : zlib
Codec ID : S_VOBSUB
Codec ID/Info : Picture based subtitle format used on DVDs
Duration : 1 h 51 min
Bit rate : 3 354 b/s
Count of elements : 1053
Stream size : 2.68 MiB (0%)
Language : English
Default : Yes
Forced : No

Menu
00:00:00.000 : en:00:00:00.000
00:03:43.014 : en:00:03:43.014
00:09:09.591 : en:00:09:09.591
00:16:38.998 : en:00:16:38.998
00:21:25.618 : en:00:21:25.618
00:25:31.655 : en:00:25:31.655
00:28:41.303 : en:00:28:41.303
00:36:43.785 : en:00:36:43.785
00:41:19.894 : en:00:41:19.894
00:50:03.375 : en:00:50:03.375
00:57:51.093 : en:00:57:51.093
01:02:46.179 : en:01:02:46.179
01:10:34.230 : en:01:10:34.230
01:17:28.727 : en:01:17:28.727
01:20:28.949 : en:01:20:28.949
01:25:35.339 : en:01:25:35.339
01:31:59.472 : en:01:31:59.472
01:37:21.711 : en:01:37:21.711
01:44:02.820 : en:01:44:02.820
01:49:47.331 : en:01:49:47.247


Click To Enlarge Image








Files:

Disobedience 2017 1080p BluRay x264 DTS [MW]
  • Disobedience 2017 1080p BluRay x264 DTS [MW].mkv (3.0 GB)

There are currently no comments. Feel free to leave one :)

Code:

  • udp://tracker.coppersurfer.tk:6969/announce
  • udp://tracker.pirateparty.gr:6969/announce
  • udp://tracker.coppersurfer.tk:6969/announce
  • udp://tracker.leechers-paradise.org:6969/announce
  • udp://eddie4.nl:6969/announce
  • udp://tracker.tiny-vps.com:6969/announce
  • udp://9.rarbg.me:2800/announce
  • udp://9.rarbg.to:2720/announce
  • udp://public.popcorn-tracker.org:6969/announce
  • udp://open.stealth.si:80/announce
  • udp://tracker.vanitycore.co:6969/announce
  • udp://tracker.opentrackr.org:1337/announce
  • udp://bt.firebit.co.uk:6969/announce
  • udp://shadowshq.yi.org:6969/announce