Scream Online2015 | Gossip Girl | El ProtectorLong Riders! | Furudera no Obake-soudou | Scream Queens

Raa Raa (2018) Telugu HDRip x264 AAC by india4movie

  • Category Movies
  • Type h.264/x264
  • Language Telugu
  • Total size 697.0 MB
  • Uploaded By shmasti
  • Downloads 33
  • Last checked 30 minutes ago
  • Date uploaded 3 hours ago
  • Seeders 7
  • Leechers 12

Infohash : 8D0FF07826AAE6EA31B24FBAE7454458DEFE2DCC



General
Complete name : Raa Raa (2018) Telugu HDRip x264 AAC by india4movie.mkv
Format : Matroska
Format version : Version 4 / Version 2
File size : 697 MiB
Duration : 2 h 24 min
Overall bit rate : 675 kb/s
Encoded date : UTC 2018-05-28 05:29:15
Writing application : mkvmerge v8.1.0 ('Psychedelic Postcard') 32bit
Writing library : libebml v1.3.1 + libmatroska v1.4.2

Video
ID : 1
Format : AVC
Format/Info : Advanced Video Codec
Format profile : [email protected]
Format settings, CABAC : Yes
Format settings, RefFrames : 4 frames
Codec ID : V_MPEG4/ISO/AVC
Duration : 2 h 24 min
Bit rate : 546 kb/s
Width : 720 pixels
Height : 320 pixels
Display aspect ratio : 2.25:1
Frame rate mode : Constant
Frame rate : 24.000 FPS
Color space : YUV
Chroma subsampling : 4:2:0
Bit depth : 8 bits
Scan type : Progressive
Bits/(Pixel*Frame) : 0.099
Stream size : 563 MiB (81%)
Writing library : x264 core 112
Language : English
Default : Yes
Forced : No
Color range : Limited
Color primaries : BT.709
Transfer characteristics : BT.709
Matrix coefficients : BT.709

Audio
ID : 2
Format : AAC
Format/Info : Advanced Audio Codec
Format profile : LC
Codec ID : A_AAC
Duration : 2 h 24 min
Bit rate : 128 kb/s
Channel(s) : 2 channels
Channel positions : Front: L R
Sampling rate : 48.0 kHz
Frame rate : 46.875 FPS (1024 SPF)
Compression mode : Lossy
Stream size : 132 MiB (19%)
Language : English
Default : Yes
Forced : No

Screen Shoots

Files:

  • Raa Raa (2018) Telugu HDRip x264 AAC by india4movie.mkv (697.0 MB)

There are currently no comments. Feel free to leave one :)

Code:

  • udp://tracker.coppersurfer.tk:6969/announce
  • udp://tracker.opentrackr.org:1337/announce
  • udp://9.rarbg.me:2710/announce
  • udp://tracker.torrent.eu.org:451/announce
  • udp://open.stealth.si:80/announce
  • udp://public.popcorn-tracker.org:6969/announce
  • udp://p4p.arenabg.ch:1337/announce
  • udp://tracker.zer0day.to:1337/announce
  • udp://tracker.pirateparty.gr:6969/announce
  • udp://tracker.leechers-paradise.org:6969/announce
  • udp://tracker.tiny-vps.com:6969/announce
  • udp://bt.firebit.co.uk:6969/announce
  • udp://inferno.demonoid.pw:3397/announce
  • udp://shadowshq.yi.org:6969/announce
  • udp://9.rarbg.to:2780/announce