Eureka Seven Subtitle Indonesia | Episode 19 | Language Knowledge for Primary Teachers 4th edition10 jours en or | Leave a comment | Wondershare Dr Fone Toolkit for Android 8 3 3 64 + Crack [SadeemPC] zip

Marana Sasanam (2018) Telugu HDRip x264 Mp3 by india4movie

  • Category Movies
  • Type h.264/x264
  • Language Telugu
  • Total size 701.7 MB
  • Uploaded By shmasti
  • Downloads 12
  • Last checked 6 minutes ago
  • Date uploaded 2 hours ago
  • Seeders 1
  • Leechers 14

Infohash : 7F094E4F1ACAD411DB5F5AB0DA584E716F9CB441



General
Complete name : Marana Sasanam (2018) Telugu HDRip x264 Mp3 by india4movie.mkv
Format : Matroska
Format version : Version 4 / Version 2
File size : 702 MiB
Duration : 2 h 25 min
Overall bit rate : 676 kb/s
Encoded date : UTC 2018-05-28 05:27:31
Writing application : mkvmerge v8.1.0 ('Psychedelic Postcard') 32bit
Writing library : libebml v1.3.1 + libmatroska v1.4.2

Video
ID : 1
Format : AVC
Format/Info : Advanced Video Codec
Format profile : [email protected]
Format settings, CABAC : Yes
Format settings, RefFrames : 4 frames
Codec ID : V_MPEG4/ISO/AVC
Duration : 2 h 25 min
Bit rate : 624 kb/s
Width : 720 pixels
Height : 308 pixels
Display aspect ratio : 2.35:1
Original display aspect ratio : 2.35:1
Frame rate mode : Constant
Frame rate : 25.000 FPS
Color space : YUV
Chroma subsampling : 4:2:0
Bit depth : 8 bits
Scan type : Progressive
Bits/(Pixel*Frame) : 0.113
Stream size : 650 MiB (93%)
Writing library : x264 core 148 r2708 86b7198
Default : Yes
Forced : No
Color range : Limited
Color primaries : BT.709
Transfer characteristics : BT.709
Matrix coefficients : BT.709

Audio
ID : 2
Format : MPEG Audio
Format version : Version 1
Format profile : Layer 3
Mode : Joint stereo
Mode extension : MS Stereo
Codec ID : A_MPEG/L3
Codec ID/Hint : MP3
Duration : 2 h 25 min
Bit rate mode : Constant
Bit rate : 48.0 kb/s
Channel(s) : 2 channels
Sampling rate : 44.1 kHz
Frame rate : 38.281 FPS (1152 SPF)
Compression mode : Lossy
Delay relative to video : -25 ms
Stream size : 49.8 MiB (7%)
Language : English
Default : Yes
Forced : No

Screen Shoots

Files:

  • Marana Sasanam (2018) Telugu HDRip x264 Mp3 by india4movie.mkv (701.7 MB)

There are currently no comments. Feel free to leave one :)

Code:

  • udp://tracker.coppersurfer.tk:6969/announce
  • udp://tracker.opentrackr.org:1337/announce
  • udp://9.rarbg.me:2710/announce
  • udp://tracker.torrent.eu.org:451/announce
  • udp://open.stealth.si:80/announce
  • udp://public.popcorn-tracker.org:6969/announce
  • udp://p4p.arenabg.ch:1337/announce
  • udp://tracker.zer0day.to:1337/announce
  • udp://tracker.pirateparty.gr:6969/announce
  • udp://tracker.leechers-paradise.org:6969/announce
  • udp://tracker.tiny-vps.com:6969/announce
  • udp://bt.firebit.co.uk:6969/announce
  • udp://inferno.demonoid.pw:3397/announce
  • udp://shadowshq.yi.org:6969/announce
  • udp://9.rarbg.to:2780/announce