Stolz und Vorurteil | IL FANTASMA DEL CAVALIERE | The InvitedStreamango | 12 Monkeys | After Porn Ends 2 2017 720p WEBRip x264 AAC-ETRG

Formula 1 2018 Monaco Grand Prix HDTV x264 720

  • Category TV
  • Type HD
  • Language English
  • Total size 3.0 GB
  • Uploaded By HackRF
  • Downloads 405
  • Last checked 38 minutes ago
  • Date uploaded 19 hours ago
  • Seeders 87
  • Leechers 27

Infohash : 750BA32E2D5471AA6F2393DAD39E5884B557DA6F


Formula 1 2018


Monaco Grand Prix
Circuit de Monaco
Monte Carlo, Monaco
Sun, May 27 9: 10a ET (Sky)





General
Complete name : Formula 1 2018 Monaco Grand Prix HDTV x264 720.mkv
Format : Matroska
Format version : Version 4 / Version 2
File size : 2.96 GiB
Duration : 1 h 58 min
Overall bit rate : 3 589 kb/s
Encoded date : UTC 2018-05-27 15:52:53
Writing application : mkvmerge v15.0.0 ('Duel with the Devil') 64-bit
Writing library : libebml v1.3.5 + libmatroska v1.4.5

Video
ID : 1
Format : AVC
Format/Info : Advanced Video Codec
Format profile : [email protected]
Format settings, CABAC : Yes
Format settings, RefFrames : 5 frames
Codec ID : V_MPEG4/ISO/AVC
Duration : 1 h 58 min
Bit rate : 3 202 kb/s
Width : 1 280 pixels
Height : 720 pixels
Display aspect ratio : 16:9
Frame rate mode : Constant
Frame rate : 59.940 (59940/1000) FPS
Original frame rate : 59.940 (60000/1001) FPS
Color space : YUV
Chroma subsampling : 4:2:0
Bit depth : 8 bits
Scan type : Progressive
Bits/(Pixel*Frame) : 0.058
Stream size : 2.64 GiB (89%)
Writing library : x264 core 148 r2744 b97ae06
Default : Yes
Forced : No

Audio
ID : 2
Format : AC-3
Format/Info : Audio Coding 3
Format settings, Endianness : Big
Codec ID : A_AC3
Duration : 1 h 58 min
Bit rate mode : Constant
Bit rate : 384 kb/s
Channel(s) : 6 channels
Channel positions : Front: L C R, Side: L R, LFE
Sampling rate : 48.0 kHz
Frame rate : 31.250 FPS (1536 SPF)
Bit depth : 16 bits
Compression mode : Lossy
Stream size : 325 MiB (11%)
Language : new
Service kind : Complete Main
Default : Yes
Forced : No


Files:

Formula 1 2018 Monaco Grand Prix HDTV x264 720
  • Downloaded from softwaresonly.com.txt (0.3 KB)
  • Downloaded from demonoid.pw.txt (0.4 KB)
  • Formula 1.txt (5.1 KB)
  • Downloaded from Katcr.co .txt (6.0 KB)
  • Formula 1 2018 Monaco Grand Prix HDTV x264 720.mkv (3.0 GB)

There are currently no comments. Feel free to leave one :)

Code:

  • udp://tracker.coppersurfer.tk:6969/announce
  • udp://tracker.trackerfix.com:80/announce
  • udp://9.rarbg.me:2710/announce
  • http://tracker.opentrackr.org:1337/announce
  • udp://inferno.demonoid.pw:3393/announce
  • udp://tracker.ilibr.org:6969/announce
  • udp://tracker.leechers-paradise.org:6969/announce
  • udp://tracker.zer0day.to:1337/announce
  • udp://eddie4.nl:6969/announce
  • udp://inferno.demonoid.pw:3391/announce
  • udp://tracker.leechers-paradise.org:6969