The Nun Free Movie Download HD Cam Download The Nun in HD Cam (860 MB)↓   The Nun Free Movie Download HD . At the point when a youthful religious woman at a sheltered nunnery in Romania takes her own particular life, a minister with a spooky past and a novitiate on the limit of her last promises are sent by the Vatican to examine. Together they reveal the ... | Farm Heroes Saga | 28 Mar, 2018 218,542 201,748 422Lançamentos | Boku no Hero Academia 10 | Policier

Lost In London 2017 Movies 720p HDRip x264 AAC with Sample ☻rDX☻...

  • Category Movies
  • Type HD
  • Language English
  • Total size 993.5 MB
  • Uploaded By nehalpuja
  • Downloads 147
  • Last checked 2 months ago
  • Date uploaded 2 months ago
  • Seeders 12
  • Leechers 3

Lost in London

ComedyDrama

Within the course of a night, Woody Harrelson finds himself in a misadventure in London that winds him up in prison.

Infohash : B975F7731BD148A70C2F9D519E2A5BF7CE376DF5

Lost In London 2017 Movies 720p HDRip x264 AAC with Sample ☻rDX☻
===============================================================================================

SCREEN SHOTS:



or

http://iphonehosting.eu/2018/5/a/interest/1.html

File size : 983 MiB
Duration : 1 h 43 min
Overall bit rate : 1 326 kb/s
Movie name : Lost In London 2017 Movies 720p HDRip x264 AAC ☻rDX☻

Video
ID : 2
Format : AVC
Format/Info : Advanced Video Codec
Format profile : [email protected]
Format settings, CABAC : Yes
Format settings, ReFrames : 4 frames
Codec ID : V_MPEG4/ISO/AVC
Duration : 1 h 43 min
Bit rate : 1 200 kb/s
Width : 1 280 pixels
Height : 720 pixels
Display aspect ratio : 16:9
Frame rate mode : Constant
Frame rate : 23.976 (24000/1001) FPS
Color space : YUV
Chroma subsampling : 4:2:0
Bit depth : 8 bits
Scan type : Progressive
Bits/(Pixel*Frame) : 0.054
Stream size : 868 MiB (88%)
Title : ☻rDX☻
Writing library : x264

Audio
ID : 1
Format : MPEG Audio
Format version : Version 1
Format profile : Layer 3
Mode : Joint stereo
Mode extension : MS Stereo
Codec ID : A_MPEG/L3
Codec ID/Hint : MP3
Duration : 1 h 43 min
Bit rate mode : Constant
Bit rate : 128 kb/s
Channel(s) : 2 channels
Sampling rate : 44.1 kHz
Compression mode : Lossy
Delay relative to video : -25 ms
Stream size : 94.8 MiB (10%)
Title : ☻rDX☻
Writing library : LAME3.98.4
Default : Yes
Forced : No



IMDB : http://www.imdb.com/title/tt6338476

Files:

Lost In London 2017 Movies 720p HDRip x264 AAC with Sample ☻rDX☻
  • Sample ~ Lost In London 2017 Movies 720p HDRip x264 AAC ☻rDX☻.mkv (10.8 MB)
  • Lost In London 2017 Movies 720p HDRip x264 AAC ☻rDX☻.mkv (982.7 MB)

There are currently no comments. Feel free to leave one :)

Code:

  • udp://tracker.coppersurfer.tk:6969/announce
  • udp://tracker.leechers-paradise.org:6969/announce
  • udp://tracker.pirateparty.gr:6969/announce
  • udp://eddie4.nl:6969/announce
  • udp://tracker.zer0day.to:1337/announce
  • udp://9.rarbg.me:2710/announce
  • udp://9.rarbg.to:2710/announce
  • udp://public.popcorn-tracker.org:6969/announce
  • udp://p4p.arenabg.ch:1337/announce
  • udp://tracker.vanitycore.co:6969/announce
  • udp://ipv4.tracker.harry.lu:80/announce
  • udp://tracker.opentrackr.org:1337/announce
  • udp://p4p.arenabg.com:1337/announce
  • udp://shadowshq.yi.org:6969/announce