Jarrad Pon | Jessabelle | NCH Debut Video Capture Software Pro 5.07Claws HDTV | Kill Skills (1970) | Metalocalypse

Death Wish 2018 1080p BluRay x264 DTS [MW]

  • Category Movies
  • Type HD
  • Language English
  • Total size 3.2 GB
  • Uploaded By moviezworldz
  • Downloads 269
  • Last checked 2 months ago
  • Date uploaded 2 months ago
  • Seeders 12
  • Leechers 3

Death Wish

ActionCrimeDramaThriller

A mild-mannered father is transformed into a killing machine after his family is torn apart by a violent act.

Infohash : 7B597A20C301295E0FFCAD83CE8E0CE1F074203D





General
Format : Matroska
Format version : Version 4 / Version 2
File size : 3.18 GiB
Duration : 1 h 46 min
Overall bit rate : 4 262 kb/s

Video
ID : 1
Format : AVC
Format/Info : Advanced Video Codec
Format profile : [email protected]
Format settings : CABAC / 4 Ref Frames
Format settings, CABAC : Yes
Format settings, RefFrames : 4 frames
Codec ID : V_MPEG4/ISO/AVC
Duration : 1 h 46 min
Bit rate : 2 800 kb/s
Width : 1 920 pixels
Height : 800 pixels
Display aspect ratio : 2.40:1
Frame rate mode : Constant
Frame rate : 23.976 (24000/1001) FPS
Color space : YUV
Chroma subsampling : 4:2:0
Bit depth : 8 bits
Scan type : Progressive
Bits/(Pixel*Frame) : 0.076
Stream size : 2.04 GiB (64%)
Writing library : x264 core 155 r2893 b00bcaf
Default : Yes
Forced : No

Audio
ID : 2
Format : DTS
Format/Info : Digital Theater Systems
Codec ID : A_DTS
Duration : 1 h 46 min
Bit rate mode : Constant
Bit rate : 1 509 kb/s
Channel(s) : 6 channels
Channel positions : Front: L C R, Side: L R, LFE
Sampling rate : 48.0 kHz
Frame rate : 93.750 FPS (512 SPF)
Bit depth : 24 bits
Compression mode : Lossy
Stream size : 1.12 GiB (35%)
Language : English
Default : Yes
Forced : No

Text #1
ID : 3
Format : VobSub
Muxing mode : zlib
Codec ID : S_VOBSUB
Codec ID/Info : Picture based subtitle format used on DVDs
Duration : 1 h 44 min
Bit rate : 13.1 kb/s
Count of elements : 2291
Stream size : 9.82 MiB (0%)
Language : English
Default : Yes
Forced : No

Text #2
ID : 4
Format : VobSub
Muxing mode : zlib
Codec ID : S_VOBSUB
Codec ID/Info : Picture based subtitle format used on DVDs
Duration : 1 h 39 min
Bit rate : 7 082 b/s
Count of elements : 1686
Stream size : 5.06 MiB (0%)
Language : English
Default : No
Forced : No

Menu
00:00:00.000 : en:00:00:00.000
00:05:39.089 : en:00:05:39.089
00:08:51.239 : en:00:08:51.239
00:11:55.798 : en:00:11:55.798
00:19:12.860 : en:00:19:12.860
00:24:34.139 : en:00:24:34.139
00:28:37.174 : en:00:28:37.174
00:32:45.964 : en:00:32:45.964
00:36:15.840 : en:00:36:15.840
00:43:49.168 : en:00:43:49.168
00:47:10.411 : en:00:47:10.411
00:53:49.518 : en:00:53:49.518
00:56:56.330 : en:00:56:56.330
01:00:27.082 : en:01:00:27.082
01:07:55.154 : en:01:07:55.154
01:11:16.564 : en:01:11:16.564
01:15:52.256 : en:01:15:52.256
01:19:23.926 : en:01:19:23.926
01:22:41.415 : en:01:22:41.415
01:25:43.889 : en:01:25:43.889
01:28:20.837 : en:01:28:20.837
01:31:24.813 : en:01:31:24.813
01:37:14.537 : en:01:37:14.537
01:40:07.585 : en:01:40:07.585











Files:

Death Wish 2018 1080p BluRay x264 DTS [MW]
  • Death Wish 2018 1080p BluRay x264 DTS [MW].mkv (3.2 GB)

There are currently no comments. Feel free to leave one :)

Code:

  • udp://tracker.pirateparty.gr:6969/announce
  • udp://inferno.demonoid.pw:3391/announce
  • udp://tracker.coppersurfer.tk:6969/announce
  • udp://tracker.leechers-paradise.org:6969/announce
  • udp://eddie4.nl:6969/announce
  • udp://tracker.tiny-vps.com:6969/announce
  • udp://9.rarbg.me:2770/announce
  • udp://9.rarbg.to:2740/announce
  • udp://public.popcorn-tracker.org:6969/announce
  • udp://open.stealth.si:80/announce
  • udp://tracker.vanitycore.co:6969/announce
  • udp://tracker.opentrackr.org:1337/announce
  • udp://bt.firebit.co.uk:6969/announce
  • udp://shadowshq.yi.org:6969/announce