Gochuumon wa Usagi Desu ka? | Novelas Chocolate con pimienta 1x60 | DVDRip Gnome Alone (2017)Ariana Grande ft. Iggy Azalea - Problem. | Stardew Valley [v 1.3.28] (2016) PC | Лицензия | Lee Jung-Min Lee Young-Ok

Parmanu – The Story Of Pokhran (2018) Desi PRE-Rip V2 720p Hindi ...

  • Category Movies
  • Type Bollywood
  • Language Hindi
  • Total size 1.1 GB
  • Uploaded By LHDM
  • Downloads 28554
  • Last checked 2 months ago
  • Date uploaded 2 months ago
  • Seeders 222
  • Leechers 108

Parmanu: The Story of Pokhran

Drama

A film based on India's nuclear bomb tests in 1998.

Infohash : 758360CEFDEDED2EF52247F5DDA93B06AE67BE86





[[>>SAMPLE<<]]
http://oload.stream/f/XLVAG1PKSSc/vlc-record-2018-05-26-05h11m02s-LatestHDMovies___TeamSHAHID-.mp4






General
Unique ID                   : 239832244941796898632804564291828353440 (0xB46E029D891B54EEE341B5087D8489A0)
Complete name               : C:\Users\SAJID COMPUTERS\Downloads\Video\Parmanu – The Story Of Pokhran (2018) Desi PRE-Rip V2 720p Hindi H.264 AAC - LatestHDMovies.mkv
Format                      : Matroska
Format version              : Version 4 / Version 2
File size                   : 1.07 GiB
Duration                    : 1 h 59 min
Overall bit rate            : 1 283 kb/s
Movie name                  : LatestHDMovies | TeamSHAHID
Encoded date                : UTC 2018-05-26 00:06:31
Writing application         : mkvmerge v23.0.0 ('The Bride Said No') 32-bit
Writing library             : libebml v1.3.6 + libmatroska v1.4.9
Cover                       : Yes
Attachments                 : Cover.jpg

Video
ID                          : 1
Format                      : AVC
Format/Info                 : Advanced Video Codec
Format profile              : [email protected]
Format settings             : CABAC / 5 Ref Frames
Format settings, CABAC      : Yes
Format settings, ReFrames   : 5 frames
Codec ID                    : V_MPEG4/ISO/AVC
Duration                    : 1 h 59 min
Bit rate                    : 1 152 kb/s
Width                       : 1 288 pixels
Height                      : 524 pixels
Display aspect ratio        : 2.458
Frame rate mode             : Constant
Frame rate                  : 25.000 FPS
Color space                 : YUV
Chroma subsampling          : 4:2:0
Bit depth                   : 8 bits
Scan type                   : Progressive
Bits/(Pixel*Frame)          : 0.068
Stream size                 : 987 MiB (90%)
Title                       : LatestHDMovies | TeamSHAHID
Writing library             : x264 core 148 r2643 5c65704
Encoding settings           : cabac=1 / ref=5 / deblock=1:0:0 / analyse=0x3:0x113 / me=hex / subme=7 / psy=1 / psy_rd=1.00:0.00 / mixed_ref=1 / me_range=16 / chroma_me=1 / trellis=1 / 8x8dct=1 / cqm=0 / deadzone=21,11 / fast_pskip=1 / chroma_qp_offset=-2 / threads=8 / lookahead_threads=8 / sliced_threads=1 / slices=8 / nr=0 / decimate=1 / interlaced=0 / bluray_compat=0 / constrained_intra=0 / bframes=0 / weightp=2 / keyint=250 / keyint_min=25 / scenecut=40 / intra_refresh=0 / rc=abr / mbtree=0 / bitrate=1152 / ratetol=1.0 / qcomp=0.60 / qpmin=0 / qpmax=69 / qpstep=4 / ip_ratio=1.40 / aq=1:1.00
Language                    : Hindi
Default                     : Yes
Forced                      : No

Audio
ID                          : 2
Format                      : AAC
Format/Info                 : Advanced Audio Codec
Format profile              : LC
Codec ID                    : A_AAC-2
Duration                    : 1 h 59 min
Bit rate                    : 129 kb/s
Channel(s)                  : 2 channels
Channel positions           : Front: L R
Sampling rate               : 48.0 kHz
Frame rate                  : 46.875 FPS (1024 SPF)
Compression mode            : Lossy
Delay relative to video     : -21 ms
Stream size                 : 110 MiB (10%)
Title                       : LatestHDMovies | TeamSHAHID
Language                    : Hindi
Default                     : Yes
Forced                      : No















Files:

  • Parmanu – The Story Of Pokhran (2018) Desi PRE-Rip V2 720p Hindi H.264 AAC - LatestHDMovies.mkv (1.1 GB)

Comments

Code:

  • udp://tracker.openbittorrent.com:80/announce
  • udp://tracker.publicbt.com:80/announce
  • udp://tracker.coppersurfer.tk:6969/announce
  • udp://tracker.ilibr.org:6969/announce
  • udp://tracker.ilibr.org:80/announce
  • udp://tracker.opentrackr.org:1337/announce
  • udp://zer0day.to:1337/announce
  • udp://tracker.zer0day.to:1337/announce
  • udp://p4p.arenabg.com:1337/announce
  • udp://p4p.arenabg.ch:1337/announce
  • udp://tracker.leechers-paradise.org:6969/announce
  • udp://explodie.org:6969/announce
  • udp://9.rarbg.to:2710/announce
  • udp://eddie4.nl:6969/announce
  • udp://9.rarbg.to:2770/announce