Read More | Bill Hunter | Voir les butswesele w sorrento online | Scooby Doo, wo bist du? | Elizabeth Banks

Curvature(2018)Mp-4 Dvd Rip{daScubaDude]

  • Category Movies
  • Type Mp4
  • Language English
  • Total size 911.2 MB
  • Uploaded By dascubadude
  • Downloads 58
  • Last checked 1 hour ago
  • Date uploaded 8 hours ago
  • Seeders 15
  • Leechers 12

Infohash : EFF7879B6560174ED95A72F6CE68638CDB76CA9D


[youtube]oaE4N4lHNWs[/youtube]
Curvature (2017)
1h 30min | Mystery, Sci-Fi, Thriller | 23 February 2018 (USA)
General
Complete name : Curvature\Curvature_Title1.mp4
Format : MPEG-4
Format profile : Base Media
Codec ID : isom (isom/iso2/avc1/mp41)
File size : 911 MiB
Duration : 1 h 28 min
Overall bit rate : 1 436 kb/s
Movie name : Curvature
Genre : Thriller
Writing application : Lavf54.6.100

Video
ID : 1
Format : AVC
Format/Info : Advanced Video Codec
Format profile : [email protected]
Format settings : 6 Ref Frames
Format settings, CABAC : No
Format settings, RefFrames : 6 frames
Codec ID : avc1
Codec ID/Info : Advanced Video Coding
Duration : 1 h 28 min
Bit rate : 1 193 kb/s
Width : 720 pixels
Height : 404 pixels
Display aspect ratio : 16:9
Frame rate mode : Constant
Frame rate : 29.970 (30000/1001) FPS
Color space : YUV
Chroma subsampling : 4:2:0
Bit depth : 8 bits
Scan type : Progressive
Bits/(Pixel*Frame) : 0.137
Stream size : 757 MiB (83%)

Audio
ID : 2
Format : AAC
Format/Info : Advanced Audio Codec
Format profile : LC
Codec ID : mp4a-40-2
Duration : 1 h 28 min
Bit rate mode : Constant
Bit rate : 236 kb/s
Channel(s) : 2 channels
Channel(s)_Original : 6 channels
Channel positions : Front: L C R, Side: L R, LFE
Sampling rate : 44.1 kHz
Frame rate : 43.066 FPS (1024 SPF)
Compression mode : Lossy
Stream size : 150 MiB (16%)
Default : Yes
Alternate group : 1

Files:

Curvature
  • screenshot779.jpg (24.5 KB)
  • screenshot777.jpg (34.0 KB)
  • screenshot778.jpg (36.2 KB)
  • screenshot780.jpg (38.2 KB)
  • Curvature_Title1.mp4 (911.1 MB)

There are currently no comments. Feel free to leave one :)

Code:

  • udp://tracker.openbittorrent.com:80/announce
  • UDP://TRACKER.LEECHERS-PARADISE.ORG:6969/ANNOUNCE
  • UDP://TRACKER.COPPERSURFER.TK:6969/ANNOUNCE
  • UDP://TRACKER.OPENTRACKR.ORG:1337/ANNOUNCE
  • UDP://TRACKER.ZER0DAY.TO:1337/ANNOUNCE
  • UDP://EDDIE4.NL:6969/ANNOUNCE
  • udp://tracker.opentrackr.org:1337/announce
  • udp://tracker.coppersurfer.tk:6969/announce
  • udp://9.rarbg.to:2710/announce