Da Vinci Şifresi & The Da Vinci Code 2006 Türkçe Dublaj izle | Like us on Facebook | Elias - Das kleine Rettungsboot (2017)LeeAndro | ↳ Navigace | Gastro das Fachmagazin – August 2018

102 Not Out 2018 Hindi PRE x264 AAC { TaRa }.mkv

  • Category Movies
  • Type Bollywood
  • Language Hindi
  • Total size 721.3 MB
  • Uploaded By SkTara
  • Downloads 49732
  • Last checked 3 months ago
  • Date uploaded 3 months ago
  • Seeders 276
  • Leechers 87

Infohash : D0C80ED7152E933291C3513D6DA4A9D360FC7C8F


102 Not Out 2018 Hindi PRE x264 AAC { TaRa }.mkv


===================================================================
General
Complete name : 102 Not Out 2018 Hindi PRE x264 AAC { TaRa }.mkv
Format : Matroska
Format version : Version 4 / Version 2
File size : 721 MiB
Duration : 1 h 37 min
Overall bit rate : 1 031 kb/s
===================================================================
Video
ID : 1
Format : AVC
Format/Info : Advanced Video Codec
Format profile : [email protected]
Format settings : CABAC / 4 Ref Frames
Format settings, CABAC : Yes
Format settings, ReFrames : 4 frames
Codec ID : V_MPEG4/ISO/AVC
Duration : 1 h 37 min
Bit rate : 879 kb/s
Width : 648 pixels
Height : 288 pixels
Display aspect ratio : 2.25:1
Frame rate mode : Constant
Frame rate : 25.000 FPS
Color space : YUV
Chroma subsampling : 4:2:0
Bit depth : 8 bits
Scan type : Progressive
Bits/(Pixel*Frame) : 0.188
Stream size : 641 MiB (89%)
Title : .....::::: TaRa :::::.....
Language : Hindi
Default : Yes
Forced : No
===================================================================
Audio
ID : 2
Format : AAC
Format/Info : Advanced Audio Codec
Format profile : LC
Codec ID : A_AAC-2
Duration : 1 h 37 min
Bit rate : 112 kb/s
Channel(s) : 2 channels
Channel positions : Front: L R
Sampling rate : 44.1 kHz
Frame rate : 43.066 FPS (1024 SPF)
Compression mode : Lossy
Delay relative to video : -23 ms
Stream size : 78.4 MiB (11%)
Title : .....::::: TaRa :::::.....
Language : Hindi
Default : Yes
Forced : No
===================================================================






















Files:

102 Not Out 2018 Hindi PRE x264 AAC { TaRa }.mkv
  • www.hdsector.to.txt (0.6 KB)
  • www.hdsector.to.nfo (6.5 KB)
  • 102-Not-Out.jpg (165.1 KB)
  • www.hdsector.to.jpg (209.8 KB)
  • 102 Not Out 2018 Hindi PRE x264 AAC { TaRa }.mkv (720.9 MB)

Comments

Code:

  • udp://tracker.coppersurfer.tk:6969/announce
  • udp://tracker.pirateparty.gr:6969/announce
  • udp://shadowshq.yi.org:6969/announce
  • udp://eddie4.nl:6969/announce
  • udp://tracker.leechers-paradise.org:6969/announce
  • udp://tracker.opentrackr.org:1337/announce
  • udp://p4p.arenabg.ch:1337/announce
  • udp://p4p.arenabg.com:1337/announce
  • udp://9.rarbg.me:2720/announce
  • udp://9.rarbg.to:2780/announce
  • udp://tracker.coppersurfer.tk:80/announce
  • udp://tracker.vanitycore.co:6969/announce
  • udp://public.popcorn-tracker.org:6969/announce
  • udp://tracker.opentrackr.org:1337/announce
  • udp://tracker.zer0day.to:1337/announce