Eminem – Lucky You (feat. Joyner Lucas) Mp3 Download | This Is Us – Saison 2 | Pam Peralta, "Fuel Efficiency In Transportation"slice of life | Betty Boop | Source Code

Baaghi 2 (2018) [Hindi - HDRip - x264 - 700MB] - Team TR

  • Category Movies
  • Type Bollywood
  • Language Hindi
  • Total size 698.6 MB
  • Uploaded By RockerS
  • Downloads 13542
  • Last checked 3 months ago
  • Date uploaded 4 months ago
  • Seeders 214
  • Leechers 36

Infohash : D3B6E2B90DADF9802D2AC6428215C8CE274BC88A

Baaghi 2 (2018) [Hindi - HDRip - x264 - 700MB] - Team TR


SAMPLE

SCREENSHOTS

Team TamilRockers Exclusive

Source : DesireMovies (Thanks a lot)

MEDIA INFO
General
Format                         : Matroska
Format version                 : Version 4 / Version 2
File size                      : 704 MiB
Duration                       : 2 h 27 min
Overall bit rate               : 666 kb/s

Video
ID                             : 1
Format                         : AVC
Format/Info                    : Advanced Video Codec
Duration                       : 2 h 27 min
Bit rate                       : 618 kb/s
Width                          : 720 pixels
Height                         : 320 pixels
Display aspect ratio           : 2.25:1
Frame rate mode                : Constant
Frame rate                     : 25.000 FPS
Stream size                    : 651 MiB (93%)
Language                       : Hindi
Default                        : Yes
Forced                         : No


Audio
ID                             : 2
Format                         : MPEG Audio
Format version                 : Version 1
Format profile                 : Layer 3
Format settings                : Joint stereo / MS Stereo
Codec ID                       : A_MPEG/L3
Codec ID/Hint                  : MP3
Duration                       : 2 h 27 min
Bit rate mode                  : Constant
Bit rate                       : 48.0 kb/s
Channel(s)                     : 2 channels
Sampling rate                  : 48.0 kHz
Frame rate                     : 41.667 FPS (1152 SPF)
Compression mode               : Lossy
Delay relative to video        : -23 ms
Stream size                    : 50.7 MiB (7%)
Language                       : Hindi
Default                        : Yes
Forced                         : No


Files:

  • www.TamilRockers.li - Baaghi 2 (2018) [Hindi - HDRip - x264 - 700MB].mkv (698.6 MB)

Comments

Code:

  • udp://tracker.openbittorrent.com:80/announce