Sieg der Liebe | libre de El mejor verano de mi vida (2018) Español Castellano descargar la versión completa | Stream Link 2Keenan Henson | Tokyo Magnitude 8.0 | Chapter 3

Baaghi 2 (2018) NEW PreDVD-Rip 720p Hindi H.264 ACC - LatestHDMov...

  • Category Movies
  • Type Bollywood
  • Language Hindi
  • Total size 1.2 GB
  • Uploaded By LHDM
  • Downloads 16549
  • Last checked 1 week ago
  • Date uploaded 2 weeks ago
  • Seeders 211
  • Leechers 94

Baaghi 2

ActionRomanceThriller

A battle-hardened army officer goes in search of his ex-lover's child who is mysteriously kidnapped. Neha reaches out to the only person who can help her with her plight, Ronnie. He goes deep into the underbelly of Goa, facing off against drug lords, menacing Russian henchmen, and blood thirsty animals. Daring stunts, chase sequences, air strikes, bomb blasts and other large-scale action sequences will be done with a bona-fide, larger than life approach, truly making it a spectacle.

Infohash : F1351628E0AF94502F421049C8BB7D5B558D4C5E






[[>>SAMPLE<<]]
http://openload.co/f/LuVb42mSw7s/vlc-record-2018-04-02-08h54m43s-LatestHDMovies___TeamSHAHID-.mp4









General
Unique ID : 42600682948608716719752421363119235847 (0x200C97D5059F7ABF72FD2B440F7F2307)
Complete name : Baaghi 2 (2018) NEW PreDVD-Rip 720p Hindi H.264 ACC - LatestHDMovies.mkv
Format : Matroska
Format version : Version 4 / Version 2
File size : 1.24 GiB
Duration : 2 h 15 min
Overall bit rate : 1 311 kb/s
Movie name : LatestHDMovies | TeamSHAHID
Encoded date : UTC 2018-04-02 03:51:06
Writing application : mkvmerge v21.0.0 ('Tardigrades Will Inherit The Earth') 32-bit
Writing library : libebml v1.3.5 + libmatroska v1.4.8
Cover : Yes
Attachments : Cover.jpg

Video
ID : 1
Format : AVC
Format/Info : Advanced Video Codec
Format profile : [email protected]
Format settings : CABAC / 3 Ref Frames
Format settings, CABAC : Yes
Format settings, ReFrames : 3 frames
Codec ID : V_MPEG4/ISO/AVC
Duration : 2 h 15 min
Bit rate : 1 216 kb/s
Width : 1 280 pixels
Height : 720 pixels
Display aspect ratio : 2.25:1
Frame rate mode : Constant
Frame rate : 29.970 (30000/1001) FPS
Color space : YUV
Chroma subsampling : 4:2:0
Bit depth : 8 bits
Scan type : Progressive
Bits/(Pixel*Frame) : 0.044
Stream size : 1.15 GiB (92%)
Title : LatestHDMovies - TeamSHAHID
Writing library : x264 core 135
Encoding settings : cabac=1 / ref=3 / deblock=1:0:0 / analyse=0x3:0x113 / me=hex / subme=7 / psy=1 / psy_rd=1.00:0.00 / mixed_ref=1 / me_range=16 / chroma_me=1 / trellis=1 / 8x8dct=1 / cqm=0 / deadzone=21,11 / fast_pskip=1 / chroma_qp_offset=-2 / threads=2 / lookahead_threads=1 / sliced_threads=0 / nr=0 / decimate=1 / interlaced=0 / bluray_compat=0 / constrained_intra=0 / bframes=0 / weightp=2 / keyint=50 / keyint_min=5 / scenecut=40 / intra_refresh=0 / rc_lookahead=40 / rc=abr / mbtree=1 / bitrate=1216 / ratetol=1.0 / qcomp=0.60 / qpmin=0 / qpmax=51 / qpstep=4 / ip_ratio=1.40 / aq=1:1.00
Language : Hindi
Default : Yes
Forced : No

Audio
ID : 2
Format : AAC
Format/Info : Advanced Audio Codec
Format profile : LC
Codec ID : A_AAC-2
Duration : 2 h 15 min
Bit rate : 96.0 kb/s
Channel(s) : 2 channels
Channel positions : Front: L R
Sampling rate : 48.0 kHz
Frame rate : 46.875 FPS (1024 SPF)
Compression mode : Lossy
Delay relative to video : -33 ms
Stream size : 93.0 MiB (7%)
Title : LatestHDMovies - TeamSHAHID
Language : Hindi
Default : Yes
Forced : No





Files:

  • Baaghi 2 (2018) NEW PreDVD-Rip 720p Hindi H.264 ACC - LatestHDMovies.mkv (1.2 GB)

Comments

Code:

  • udp://tracker.openbittorrent.com:80/announce
  • udp://tracker.publicbt.com:80/announce